category: software23-02-2018 17:38
Adobe Animate CC 2018 v18.0.0.107 macOS 180224
category: software23-02-2018 17:31
Adobe CC 2018 Collection For Mac 180224
category: software23-02-2018 17:24
Adobe Character Animator CC 2018 v1.1.0 Build 184 macOS 180224
category: software23-02-2018 17:17
Adobe Dreamweaver CC 2018 v18.0.0.10136 macOS 180224
category: software23-02-2018 17:10
Adobe Illustrator CC 2018 v22.0.0.243 macOS 180224
New Ebooks
» » Vivaldi - String Concertos Vol.3 (Collegium Musicum 90) (2003)

Vivaldi - String Concertos Vol.3 (Collegium Musicum 90) (2003)

Rating:
(votes: 0)
0 25
Category: musics Published: peter Date: 16-05-2015, 08:17

Vivaldi - String Concertos, Vol.3 (Collegium Musicum 90) (2003)
Classical | Eac, Flac, Img+Cue, Log | Covers | 307.55 MB
Label: Chaconne | Catalog N.: CHAN 0687 | TT - 62:27

This is a highly distinctive album in the mountain of Vivaldi CDs. The works come from a manuscript in the library of the Paris Conservatory that is thought to have been originally presented to a French nobleman. It is thought that only two of the concertos were new, while the other 10 were chosen from those Vivaldi had on hand. Whatever the truth of this, this set of concertos represents a highly winning, perhaps more subtle aspect of Vivaldi's style than one usually comes in contact with. The works are scored for strings, although Standage doubles them with winds occasionally, as was period practice. The works represent an older style of the Italian Concerto, having something in common with Torelli. There is hardly any spotlighting of solo instruments--the argument is carried by the massed sections of strings. The performances hardly could be bettered. The Collegium Musicum 90 makes a tangy sound, not steely like so many period instrument groups. Tempos are never rushed, and everything sounds very natural. Chandos's sound engineering, as usual, is excellent. Unless you cling to the belief that Vivaldi wrote one concerto 400 times, you should find this album very appealing.

Performer:
Collegium Musicum 90
Simon Standage, conductor

Tracklisting:
01-03. Concerto for strings in A major 'Concerto ripieno', RV158
04-06. Concerto for strings in G major 'Concerto alla rustica', RV151
07-09. Concerto for strings in E minor, RV134
10-12. Concerto for strings in G major, RV145
13-15. Concerto for strings in F major, RV142
16-18. Concerto for strings in B flat major, RV166
19-21. Concerto for strings in G minor, RV156
22-24. Concerto for strings in B flat major, RV167
25-28. Concerto for strings in D minor 'Concerto madrigalesco', RV129
29-31. Concerto for strings in C major 'Concerto ripieno', RV115
32-34. Concerto for strings in A minor, RV161
35-37. Concerto for strings in C major, RV110
38-40. Concerto for strings in C minor, RV118
LOG CD:
Exact Audio Copy V1.0 beta 3 from 29. August 2011

EAC extraction logfile from 6. October 2012, 1:36

Collegium Musicum 90, Simon Standage / Vivaldi - String Concertos, Vol.3

Used drive : HL-DT-STDVDRAM GSA-4083N Adapter: 1 ID: 0

Read mode : Secure
Utilize accurate stream : Yes
Defeat audio cache : Yes
Make use of C2 pointers : No

Read offset correction : 667
Overread into Lead-In and Lead-Out : No
Fill up missing offset samples with silence : Yes
Delete leading and trailing silent blocks : No
Null samples used in CRC calculations : Yes
Used interface : Native Win32 interface for Win NT & 2000

Used output format : User Defined Encoder
Selected bitrate : 896 kBit/s
Quality : High
Add ID3 tag : No
Command line compressor : C:Program FilesExact Audio CopyFlacflac.exe
Additional command line options : -V -8 %source% TOC of the extracted CD

Track | Start | Length | Start sector | End sector
---------------------------------------------------------
1 | 0:00.00 | 2:40.63 | 0 | 12062
2 | 2:40.63 | 1:46.00 | 12063 | 20012
3 | 4:26.63 | 3:13.51 | 20013 | 34538
4 | 7:40.39 | 1:04.62 | 34539 | 39400
5 | 8:45.26 | 0:55.37 | 39401 | 43562
6 | 9:40.63 | 1:40.34 | 43563 | 51096
7 | 11:21.22 | 2:18.41 | 51097 | 61487
8 | 13:39.63 | 1:30.34 | 61488 | 68271
9 | 15:10.22 | 1:32.66 | 68272 | 75237
10 | 16:43.13 | 1:40.50 | 75238 | 82787
11 | 18:23.63 | 1:26.17 | 82788 | 89254
12 | 19:50.05 | 0:59.42 | 89255 | 93721
13 | 20:49.47 | 1:37.41 | 93722 | 101037
14 | 22:27.13 | 1:07.26 | 101038 | 106088
15 | 23:34.39 | 1:55.58 | 106089 | 114771
16 | 25:30.22 | 1:52.25 | 114772 | 123196
17 | 27:22.47 | 1:26.67 | 123197 | 129713
18 | 28:49.39 | 1:54.24 | 129714 | 138287
19 | 30:43.63 | 2:58.17 | 138288 | 151654
20 | 33:42.05 | 1:27.34 | 151655 | 158213
21 | 35:09.39 | 1:41.24 | 158214 | 165812
22 | 36:50.63 | 1:47.38 | 165813 | 173875
23 | 38:38.26 | 2:03.13 | 173876 | 183113
24 | 40:41.39 | 1:35.24 | 183114 | 190262
25 | 42:16.63 | 0:33.46 | 190263 | 192783
26 | 42:50.34 | 1:26.29 | 192784 | 199262
27 | 44:16.63 | 0:32.00 | 199263 | 201662
28 | 44:48.63 | 0:52.00 | 201663 | 205562
29 | 45:40.63 | 1:23.34 | 205563 | 211821
30 | 47:04.22 | 0:39.41 | 211822 | 214787
31 | 47:43.63 | 1:21.51 | 214788 | 220913
32 | 49:05.39 | 1:36.24 | 220914 | 228137
33 | 50:41.63 | 0:58.34 | 228138 | 232521
34 | 51:40.22 | 1:17.25 | 232522 | 238321
35 | 52:57.47 | 1:50.56 | 238322 | 246627
36 | 54:48.28 | 0:54.25 | 246628 | 250702
37 | 55:42.53 | 1:15.10 | 250703 | 256337
38 | 56:57.63 | 2:26.00 | 256338 | 267287
39 | 59:23.63 | 1:23.00 | 267288 | 273512
40 | 60:46.63 | 1:39.12 | 273513 | 280949 Range status and errors

Selected range

Filename J:MusicVivaldi - String Concertos - Vol.3Vivaldi - String Concertos, Vol.3.wav

Peak level 79.4 %
Extraction speed 2.2 X
Range quality 100.0 %
Test CRC 8F898A02
Copy CRC 8F898A02
Copy OK

No errors occurred

End of status report

==== Log checksum 749173ABE81055107D62FBFD0BA81F5F399082DE2FDC0E3E507F94562E152C7E ====

“Thanks to the original releaser"

Vivaldi - String Concertos, Vol.1
Vivaldi - String Concertos, Vol.2
Vivaldi - String Concertos, Vol.3


New Download Links
Speed
 kbps
 kbps
 kbps
Vivaldi - String Concertos Vol.3 rapidshare megaupload hotfile, Vivaldi - String Concertos Vol.3 via torrent download, rar Zip password mediafire Vivaldi - String Concertos Vol.3 download included crack, serial, keygen, 2014 2015, 2016 download available. Tags:
You May Like

Warning! -             Sorry, you are not registered user.              Register here account to log in.